#TITLE:SDO America;
#SUBTITLE:The Curse Of Curves;
#ARTIST:Cute Is What We Aim For;
#TITLETRANSLIT:;
#SUBTITLETRANSLIT:;
#ARTISTTRANSLIT:;
#CREDIT:;
#BANNER:bn.png;
#BACKGROUND:bg.png;
#LYRICSPATH:;
#CDTITLE:cd.png;
#MUSIC:The Curse Of Curves.mp3;
#OFFSET:-0.488;
#SAMPLESTART:41.413;
#SAMPLELENGTH:12.000;
#SELECTABLE:YES;
#BPMS:0.000=146.609;
#STOPS:;
#BGCHANGES:;
// cache tags:
#FIRSTBEAT:0.500;
#LASTBEAT:482.500;
#SONGFILENAME:Songs/Super Dancer Online/The Curse Of Curves/The Curse Of Curves.sm;
#HASMUSIC:1;
#HASBANNER:1;
#MUSICLENGTH:203.732;
// end cache tags

//---------------dance-single - ----------------
#NOTES:
     dance-single:
     :
     Hard:
     13:
     0.888,1.000,1.000,0.250,0.645,755.000,393.000,51.000,0.000,49.000:  // measure 1
0000
1000
1000
1000
1000
1000
1000
1000
,  // measure 2
1000
0010
0010
0010
0010
0010
0010
0010
,  // measure 3
0010
0001
0001
0001
0001
0001
0001
0001
,  // measure 4
0101
0100
0100
0100
0100
0100
0100
0100
,  // measure 5
0010
0010
0010
0010
0010
0010
0010
0010
,  // measure 6
1000
1000
1000
1000
1000
1000
1000
1000
,  // measure 7
0100
0100
0100
0100
0100
0100
0100
0100
,  // measure 8
0101
0001
0001
0001
0001
0001
0001
0001
,  // measure 9
1100
0000
0011
0000
1100
0000
0011
1100
,  // measure 10
1100
1100
1100
1100
0011
0011
0011
1100
,  // measure 11
1100
0011
0011
0011
0011
0011
0011
0011
,  // measure 12
1100
1100
0011
0011
0011
1100
1100
1100
,  // measure 13
0011
0011
0011
0000
1100
1100
0110
0000
,  // measure 14
1101
1101
1110
0000
1101
0000
0011
0000
,  // measure 15
1100
1100
1100
0011
0011
1100
0000
0011
,  // measure 16
0011
1100
0000
0011
0011
0000
1100
0000
,  // measure 17
0001
1000
0010
0100
,  // measure 18
0001
1000
0010
0000
0100
0000
0001
0000
,  // measure 19
0100
0010
1000
0001
,  // measure 20
0100
0010
1000
0200
0000
0000
0300
0000
,  // measure 21
0010
0000
0000
0000
1000
0000
0000
0000
0000
0100
0000
0000
0010
0000
0000
0100
,  // measure 22
0000
0001
0000
1000
0010
0000
0000
0000
0200
0000
0000
0000
0000
0300
0000
0000
,  // measure 23
0000
0010
0000
0000
1000
0000
0000
0000
0010
0000
0000
0000
0100
0000
0001
0000
,  // measure 24
0100
0010
1000
0000
0000
0100
0000
0000
0020
0000
0000
0000
0030
0000
0000
0000
,  // measure 25
0000
0001
0000
0000
0000
0010
0000
0000
1001
0000
0000
0000
0010
0000
0100
0000
,  // measure 26
0101
0010
1000
0000
0101
0000
0110
0000
1001
0000
0110
0000
0101
0000
0010
1000
,  // measure 27
0001
0101
0000
0000
0000
0110
0000
0000
0000
1001
0000
0000
0110
0000
0101
0000
,  // measure 28
0010
1000
0001
0000
0110
0000
1001
0000
0010
0100
0002
0000
0000
0000
0000
0000
,  // measure 29
0000
0000
0000
0003
0000
0010
0000
1100
0000
0200
0000
0000
0300
0010
0000
0000
,  // measure 30
0000
0100
0020
0000
0000
0030
0000
0000
0100
1000
0100
0000
0000
0020
0000
0000
,  // measure 31
0000
0230
0000
0000
0000
0000
0000
0320
0000
0000
0000
0000
0000
0032
0000
0000
,  // measure 32
0000
0000
0000
0000
0000
0000
0000
0000
0000
0003
0000
0000
0000
0000
0000
0000
,  // measure 33
0000
0011
0011
0000
0000
0000
1100
0000
,  // measure 34
0011
0011
0011
0000
0000
1100
1100
0000
,  // measure 35
0011
0011
0011
0000
0000
1100
1100
0000
,  // measure 36
0011
0011
0011
0000
0011
0000
1100
1100
,  // measure 37
0000
0011
0011
0011
0000
0000
1100
1100
,  // measure 38
0000
0011
0011
0011
0000
0000
1100
1100
,  // measure 39
1100
0011
0011
0011
0000
0000
1100
1100
,  // measure 40
1100
0000
0011
0011
0000
0000
1100
1100
,  // measure 41
0000
0011
0011
0011
0011
0011
0011
0011
,  // measure 42
1100
1100
1100
1100
1100
1100
1100
1100
,  // measure 43
1100
0110
0110
0110
0110
0110
0110
0110
,  // measure 44
0110
0101
0101
0101
0101
0101
0101
0101
,  // measure 45
0101
1010
1010
1010
1010
1010
1010
1010
,  // measure 46
1010
0101
0101
0101
0101
0101
0101
0101
,  // measure 47
0101
1010
1010
1010
1010
1010
1010
1010
,  // measure 48
0011
0011
0011
0011
0011
0011
0011
0011
,  // measure 49
0011
0011
1100
0000
0010
0000
1000
0001
,  // measure 50
0100
0110
0010
0100
0000
0001
0000
0100
,  // measure 51
0000
0000
0010
1000
0000
0010
0000
0100
0000
0000
0001
0000
0000
0000
0100
0000
,  // measure 52
0000
0010
0000
0001
0000
1000
0000
0010
0000
0200
0000
0000
0000
0000
0300
0000
,  // measure 53
0000
0010
0000
0000
0100
0001
0000
0001
0000
1000
0000
0010
0000
0000
0100
0000
,  // measure 54
0000
0001
0000
0100
0010
0000
0100
0000
0000
0000
2000
0000
0000
0000
3000
0010
,  // measure 55
0000
0010
0100
0000
0001
0000
0100
0010
0000
0000
0100
0000
0000
0010
0000
0100
,  // measure 56
0001
0000
0010
0000
1000
0000
0100
0000
0000
0020
0000
0000
0000
0000
0030
0000
,  // measure 57
0000
0000
0001
0100
0001
0000
0011
1100
0000
0000
0000
1110
0000
1100
0000
1100
,  // measure 58
0000
0000
0000
1100
1100
0000
0000
1100
1100
0000
1100
0000
1100
0000
1100
0000
,  // measure 59
1100
0000
0000
0011
0011
0000
0011
0000
0000
0000
0101
0000
0101
0000
0000
0101
,  // measure 60
0000
0010
0100
0110
0000
0101
0000
0101
0000
0000
0000
1101
0000
1101
0000
0001
,  // measure 61
0110
0000
0000
0110
0000
0000
0000
0101
0101
0000
0101
0000
0101
0000
0000
1010
,  // measure 62
0010
1000
0101
0000
0101
0000
1010
0000
0000
0101
0000
1010
0000
0101
0000
0101
,  // measure 63
0000
0000
0010
0020
0000
0000
0000
0030
0100
1000
0100
0020
0000
0000
0030
0200
,  // measure 64
0000
0000
0000
0000
0000
0000
0000
0000
0000
0000
0000
0300
0000
0000
0000
0000
,  // measure 65
0011
0011
0000
0011
0000
0000
0000
1100
1100
0000
0000
0002
0000
0000
1100
0000
,  // measure 66
0000
0003
0010
1100
1110
0000
1110
0000
1110
0000
1110
0000
0010
1100
0110
0000
,  // measure 67
0110
0000
0000
0000
0101
0101
0000
0101
0000
0000
0000
1110
1110
0000
1110
0000
,  // measure 68
1110
0000
0000
0101
0000
0101
0000
0000
0110
0110
0000
0000
1101
0000
1101
0000
,  // measure 69
1101
0000
0000
0110
1000
0110
0000
0101
0000
0000
0000
1101
0000
1101
0000
0000
,  // measure 70
1101
0000
0101
0000
0101
0000
0000
1101
0000
1101
0000
0000
1010
0000
1010
0000
,  // measure 71
1110
0000
0000
0101
0002
0000
0000
0000
0003
0020
0000
0000
0000
0000
0030
0100
,  // measure 72
0200
0000
0000
0000
0000
0000
0000
0310
,  // measure 73
0010
0000
0000
0000
1001
0000
0101
0001
0100
0000
0000
1011
0000
0001
0000
1111
,  // measure 74
0000
0000
0000
0011
0011
0000
0000
0011
0011
0000
0000
0011
0000
0011
0000
0011
,  // measure 75
0011
0000
0000
1100
0000
1100
0000
1100
0000
1100
0000
1100
0011
0011
0000
0011
,  // measure 76
0000
0000
0000
1111
0000
0000
0000
0011
0000
0011
0000
0011
0000
0011
0000
0101
,  // measure 77
0000
0000
0000
1011
0010
1000
0110
0000
0101
0000
1010
0000
0002
0000
0000
0000
,  // measure 78
0000
0000
0000
0000
0013
0000
0010
0100
0000
1000
0100
0000
0010
0000
0000
0002
,  // measure 79
0000
0000
0000
0023
0000
0000
0000
0000
0000
0030
0200
0000
0000
0000
0000
0000
,  // measure 80
0000
0000
0000
0000
0000
0000
0000
0300
0010
0000
0010
0000
1000
0100
0010
0000
,  // measure 81
0000
0001
0000
0000
0020
0000
0000
0000
1130
0000
0100
0000
0020
0000
0000
0000
,  // measure 82
0130
0000
0000
0001
0010
0000
0100
2000
0100
0000
3000
0020
0000
0000
0000
0030
,  // measure 83
0100
0000
0010
0000
0002
0000
0000
0000
0013
0000
0100
0000
1000
0100
0000
0000
,  // measure 84
0020
0000
0000
0000
0032
0000
0000
0000
0020
0000
0003
0000
0130
1000
0000
0100
,  // measure 85
0020
0000
0230
0000
0000
0320
0000
0000
,  // measure 86
0000
0000
0000
0000
0000
0100
0000
0030
0000
0000
0001
1000
0000
0100
0000
0010
,  // measure 87
0000
0010
0000
0001
0000
0200
0000
0000
0300
0010
0010
0000
2000
0000
0000
0000
,  // measure 88
0000
0000
0000
0000
3010
0000
0100
0000
0010
0100
0002
0000
0000
0013
0000
1000
,  // measure 89
0000
0200
0000
0000
0300
0010
0002
0000
0100
0000
0000
0003
0020
0000
0000
0000
,  // measure 90
0100
1000
0000
0000
0100
0000
0000
0000
0000
0000
0000
0001
0000
0000
0000
0000
,  // measure 91
0100
0000
0000
0000
0000
1000
0000
0000
0000
0100
0000
0000
0000
0001
0000
0000
,  // measure 92
0000
0000
0000
0000
,  // measure 93
0000
0000
2030
0000
0000
0000
0000
0000
0020
0000
0000
0000
0030
0100
0000
0000
,  // measure 94
0001
0000
0000
0000
0000
0100
0000
0000
0000
0000
0001
0000
0000
0100
0000
0000
,  // measure 95
0000
0010
0000
0000
0001
0000
0000
0000
0010
0000
3000
0000
0011
0000
0011
0000
,  // measure 96
0011
0011
0011
0011
0011
0011
0011
0011
,  // measure 97
0011
0000
0011
0011
0000
0000
1100
1100
0000
0011
0000
0011
0000
0000
1111
0000
,  // measure 98
0000
0011
0000
0000
0000
1111
0000
0011
0000
1111
0000
0000
0000
1111
0011
1100
,  // measure 99
0011
1100
0011
0000
0000
0000
1111
0000
0000
0000
1111
0000
0000
0011
1100
0000
,  // measure 100
0000
0111
0000
0000
0000
1111
0011
1100
0000
1111
0000
1111
0000
0011
1100
0011
,  // measure 101
1100
0011
0000
0011
0000
0000
0011
0000
0000
0000
1100
0000
1100
0011
0000
0011
,  // measure 102
0000
0000
1100
0000
0000
0011
0000
0000
0000
0011
0000
0000
0000
1100
0000
0011
,  // measure 103
0000
0011
0000
0000
0000
1100
0000
0022
0000
0000
0000
0003
0000
0000
0000
0000
,  // measure 104
0000
0130
1000
0200
0000
0000
0000
0000
0000
0000
0000
0000
0000
0300
0000
0000
,  // measure 105
0001
0001
0010
0000
0100
1000
0100
0000
0000
0011
0000
0000
0000
0011
0000
0000
,  // measure 106
0000
0011
1000
0000
0000
0011
1100
0011
0000
1111
0000
1111
0000
0000
0011
0000
,  // measure 107
0011
0011
0000
0000
0000
1111
0000
1111
0000
0000
0011
0000
0000
0011
0000
0011
,  // measure 108
0000
0011
0000
1111
0000
0000
1111
0000
0011
0000
0011
1100
0000
0000
0011
0000
,  // measure 109
0011
0000
0011
1100
0000
0000
0011
0000
0000
0011
1100
0000
0000
0000
1111
0000
,  // measure 110
0011
0000
0011
0000
0000
0000
1111
0011
1100
0000
0000
1111
0011
0100
0000
0011
,  // measure 111
0000
0000
0011
0000
0000
0000
1100
0000
1100
0000
0000
0000
0022
0000
0000
0033
,  // measure 112
0000
1100
0000
0011
0000
0011
0000
1100
0000
0000
0011
0000
0011
0000
1100
0000
,  // measure 113
0000
0010
0000
0000
0000
0020
0000
0100
0000
0001
0000
1000
0000
0001
0100
0000
,  // measure 114
0001
0000
0000
0100
0000
0230
0000
0010
0000
0001
0000
1000
0010
0000
0001
0000
,  // measure 115
1000
0010
0000
0001
0000
1000
0000
0320
0100
0000
0001
0000
0100
0001
0000
1000
,  // measure 116
0000
0001
0000
0000
0100
0001
0000
0100
0000
0001
1000
0000
0001
0000
0000
0100
,  // measure 117
0001
0000
0000
0100
0001
0000
1000
0000
0001
0000
0000
0100
0000
0001
0000
0100
,  // measure 118
0000
0001
1000
0000
0001
0000
0000
0100
0000
0001
0000
0100
0001
0000
0000
1000
,  // measure 119
0000
0001
0000
0100
0001
0000
0000
0100
0000
0001
0000
1000
0000
0001
0000
0100
,  // measure 120
0000
0001
0000
0100
0000
0001
0000
1000
0000
0001
0000
0100
0000
0001
0000
0100
,  // measure 121
0000
0001
1000
0000
0000
0100
0000
0001
0000
0000
0030
0000
0000
0000
0000
0000
;
